设为首页 收藏本站 开启辅助访问 放到桌面
 找回密码
 立即注册

QQ登录

只需一步,快速开始

扫一扫,访问微社区

点击进入授权页面

只需一步,快速开始

或者

[流行音乐] 成龙《超级精装大戏主题曲》1995[FLAC分轨]/CT

7 37
lmn 发表于 2020-3-25 19:55:04 |阅读模式 |复制链接

马上注册,海量高品质无损音乐打包下载。

您需要 登录 才可以下载或查看,没有帐号?立即注册  

x

TITLE "超级精装大戏主题曲"
FILE "01 问心无愧.wav" WAVE
  TRACK 01 AUDIO
    TITLE "问心无愧"
    PERFORMER "成龙"
    PREGAP 00:00:32
    INDEX 01 00:00:00
  TRACK 02 AUDIO
    TITLE "希望你会懂"
    PERFORMER "成龙"
    INDEX 00 03:45:08
FILE "02 希望你会懂.wav" WAVE
    INDEX 01 00:00:00
  TRACK 03 AUDIO
    TITLE "壮志在我胸"
    PERFORMER "成龙"
    INDEX 00 03:55:25
FILE "03 壮志在我胸.wav" WAVE
    INDEX 01 00:00:00
  TRACK 04 AUDIO
    TITLE "我有我路向"
    PERFORMER "成龙"
    INDEX 00 04:10:07
FILE "04 我有我路向.wav" WAVE
    INDEX 01 00:00:00
  TRACK 05 AUDIO
    TITLE "你给我一片天"
    PERFORMER "成龙"
    INDEX 00 04:50:35
FILE "05 你给我一片天.wav" WAVE
    INDEX 01 00:00:00
  TRACK 06 AUDIO
    TITLE "真心英雄"
    PERFORMER "成龙"
    INDEX 00 03:35:00
FILE "06 真心英雄.wav" WAVE
    INDEX 01 00:00:00
  TRACK 07 AUDIO
    TITLE "对得起自己"
    PERFORMER "成龙"
    INDEX 00 05:00:00
FILE "07 对得起自己.wav" WAVE
    INDEX 01 00:00:00
  TRACK 08 AUDIO
    TITLE "感受"
    PERFORMER "成龙"
    INDEX 00 03:43:43
FILE "08 感受.wav" WAVE
    INDEX 01 00:00:00
  TRACK 09 AUDIO
    TITLE "男儿当自强"
    PERFORMER "成龙"
    INDEX 00 04:01:62
FILE "09 男儿当自强.wav" WAVE
    INDEX 01 00:00:00
  TRACK 10 AUDIO
    TITLE "醉拳"
    PERFORMER "成龙"
    INDEX 00 04:21:58
FILE "10 醉拳.wav" WAVE
    INDEX 01 00:00:00
  TRACK 11 AUDIO
    TITLE "You Are The One I Desire"
    PERFORMER "成龙"
    INDEX 00 03:04:62
FILE "11 You Are The One I Desire.wav" WAVE
    INDEX 01 00:00:00
  TRACK 12 AUDIO
    TITLE "帝女花"
    PERFORMER "成龙"
    INDEX 00 02:25:00
FILE "12 帝女花.wav" WAVE
    INDEX 01 00:00:00
  TRACK 13 AUDIO
    TITLE "电影[红番区]配乐"
    PERFORMER "成龙"
    INDEX 00 01:40:00
FILE "13 电影[红番区]配乐.wav" WAVE
    INDEX 01 00:00:00

下载地址:

游客,如果您要查看本帖隐藏内容请回复

发表于 2020-3-25 23:00:27 来自手机
没有听过这个,下载聆听,谢谢楼主分享.
发表于 2020-3-26 06:04:17
愤怒时来一首摇滚,暧昧时听一曲爵士,自信时放一首电音,戴上耳机你便拥有了全世界。
发表于 2020-3-27 06:15:33
凡音之起,由人心生也,人心之动,物使之然也。
发表于 7 天前
自从加入了享乐音乐网,听音乐,真是一件很幸福的事.
发表于 6 天前 来自手机
曾经看到过忘记收藏,好音乐不能再错过了。
发表于 前天 02:47
走进音乐的王国,我便会在那里找到心的归宿,找到安闲与解脱。
发表于 2 小时前 来自手机
蛮好听的说,谢谢老大分享。
您需要登录后才可以回帖 登录 | 立即注册  

本版积分规则

逛了这么久,何不进去瞧瞧!

登录 发布 快速回复 返回顶部 返回列表