设为首页 收藏本站 开启辅助访问 放到桌面
 找回密码
 立即注册

QQ登录

只需一步,快速开始

扫一扫,访问微社区

点击进入授权页面

只需一步,快速开始

或者

[流行音乐] 28 Now That's What I Call Music! Vol. 28 (2CD 1994)(UK Version) FLAC分轨/CT

9 58
lmn 发表于 2019-11-7 20:12:46 |阅读模式 |复制链接

马上注册,海量高品质无损音乐打包下载。

您需要 登录 才可以下载或查看,没有帐号?立即注册  

x

FILE "01 Love Is All Around.flac" WAVE
  TRACK 01 AUDIO
    TITLE "Love Is All Around"
    PERFORMER "Wet Wet Wet"
    INDEX 01 00:00:00
  TRACK 02 AUDIO
    TITLE "I Swear"
    PERFORMER "All-4-One"
    INDEX 00 03:56:35
FILE "02 I Swear.flac" WAVE
    INDEX 01 00:00:00
  TRACK 03 AUDIO
    TITLE "Don't Turn Around"
    PERFORMER "Ace of Base"
    INDEX 00 03:41:48
FILE "03 Don't Turn Around.flac" WAVE
    INDEX 01 00:00:00
  TRACK 04 AUDIO
    TITLE "Shine"
    PERFORMER "Aswad"
    INDEX 00 04:06:50
FILE "04 Shine.flac" WAVE
    INDEX 01 00:00:00
  TRACK 05 AUDIO
    TITLE "(Meet) The Flintstones"
    PERFORMER "The BC-52's"
    INDEX 00 03:38:22
FILE "05 (Meet) The Flintstones.flac" WAVE
    INDEX 01 00:00:00
  TRACK 06 AUDIO
    TITLE "Crazy for You"
    PERFORMER "Let Loose"
    INDEX 00 02:22:47
FILE "06 Crazy for You.flac" WAVE
    INDEX 01 00:00:00
  TRACK 07 AUDIO
    TITLE "U R the Best Thing"
    PERFORMER "D:Ream"
    INDEX 00 04:09:40
FILE "07 U R the Best Thing.flac" WAVE
    INDEX 01 00:00:00
  TRACK 08 AUDIO
    TITLE "Everybody's Talkin'"
    PERFORMER "The Beautiful South"
    INDEX 00 03:58:63
FILE "08 Everybody's Talkin'.flac" WAVE
    INDEX 01 00:00:00
  TRACK 09 AUDIO
    TITLE "I Believe"
    PERFORMER "Marcella Detroit"
    INDEX 00 02:35:33
FILE "09 I Believe.flac" WAVE
    INDEX 01 00:00:00
  TRACK 10 AUDIO
    TITLE "I'll Stand by You"
    PERFORMER "The Pretenders"
    INDEX 00 04:44:63
FILE "10 I'll Stand by You.flac" WAVE
    INDEX 01 00:00:00
  TRACK 11 AUDIO
    TITLE "Inside"
    PERFORMER "Stiltskin"
    INDEX 00 03:59:27
FILE "11 Inside.flac" WAVE
    INDEX 01 00:00:00
  TRACK 12 AUDIO
    TITLE "Girls & Boys"
    PERFORMER "Blur"
    INDEX 00 04:25:13
FILE "12 Girls & Boys.flac" WAVE
    INDEX 01 00:00:00
  TRACK 13 AUDIO
    TITLE "Renaissance"
    PERFORMER "M People"
    INDEX 00 04:17:18
FILE "13 Renaissance.flac" WAVE
    INDEX 01 00:00:00
  TRACK 14 AUDIO
    TITLE "Just a Step From Heaven"
    PERFORMER "Eternal"
    INDEX 00 03:38:15
FILE "14 Just a Step From Heaven.flac" WAVE
    INDEX 01 00:00:00
  TRACK 15 AUDIO
    TITLE "Another Sad Love Song"
    PERFORMER "Toni Braxton"
    INDEX 00 03:48:10
FILE "15 Another Sad Love Song.flac" WAVE
    INDEX 01 00:00:00
  TRACK 16 AUDIO
    TITLE "Searching"
    PERFORMER "China Black"
    INDEX 00 04:38:45
FILE "16 Searching.flac" WAVE
    INDEX 01 00:00:00
  TRACK 17 AUDIO
    TITLE "You Don't Love Me (No No No)"
    PERFORMER "Dawn Penn"
    INDEX 00 04:08:40
FILE "17 You Don't Love Me (No No No).flac" WAVE
    INDEX 01 00:00:00
  TRACK 18 AUDIO
    TITLE "I Wanna Be Your Man"
    PERFORMER "Chaka Demus & Pliers"
    INDEX 00 03:17:65
FILE "18 I Wanna Be Your Man.flac" WAVE
    INDEX 01 00:00:00
  TRACK 19 AUDIO
    TITLE "Always"
    PERFORMER "Erasure"
    INDEX 00 03:41:60
FILE "19 Always.flac" WAVE
    INDEX 01 00:00:00
  TRACK 20 AUDIO
    TITLE "Prayer for the Dying"
    PERFORMER "Seal"
    INDEX 00 03:56:35
FILE "20 Prayer for the Dying.flac" WAVE
    INDEX 01 00:00:00

FILE "01 Swamp Thing.flac" WAVE
  TRACK 01 AUDIO
    TITLE "Swamp Thing"
    PERFORMER "The Grid"
    INDEX 01 00:00:00
  TRACK 02 AUDIO
    TITLE "Everybody Gonfi Gon"
    PERFORMER "Two Cowboys"
    INDEX 00 03:57:40
FILE "02 Everybody Gonfi Gon.flac" WAVE
    INDEX 01 00:00:00
  TRACK 03 AUDIO
    TITLE "Get-A-Way"
    PERFORMER "Maxx"
    INDEX 00 03:04:28
FILE "03 Get-A-Way.flac" WAVE
    INDEX 01 00:00:00
  TRACK 04 AUDIO
    TITLE "Go on Move (feat. The Mad Stuntman)"
    PERFORMER "Reel 2 Real"
    INDEX 00 03:43:50
FILE "04 Go on Move (feat. The Mad Stuntman).flac" WAVE
    INDEX 01 00:00:00
  TRACK 05 AUDIO
    TITLE "No Good (Start the Dance)"
    PERFORMER "The Prodigy"
    INDEX 00 04:11:02
FILE "05 No Good (Start the Dance).flac" WAVE
    INDEX 01 00:00:00
  TRACK 06 AUDIO
    TITLE "U & Me"
    PERFORMER "Cappella"
    INDEX 00 03:57:38
FILE "06 U & Me.flac" WAVE
    INDEX 01 00:00:00
  TRACK 07 AUDIO
    TITLE "Rock My Heart"
    PERFORMER "Haddaway"
    INDEX 00 03:10:50
FILE "07 Rock My Heart.flac" WAVE
    INDEX 01 00:00:00
  TRACK 08 AUDIO
    TITLE "The Real Thing"
    PERFORMER "2 Unlimited"
    INDEX 00 04:07:62
FILE "08 The Real Thing.flac" WAVE
    INDEX 01 00:00:00
  TRACK 09 AUDIO
    TITLE "Don't Give It Up"
    PERFORMER "Sonic Surfers"
    INDEX 00 03:38:60
FILE "09 Don't Give It Up.flac" WAVE
    INDEX 01 00:00:00
  TRACK 10 AUDIO
    TITLE "What's Up"
    PERFORMER "DJ Miko"
    INDEX 00 03:48:70
FILE "10 What's Up.flac" WAVE
    INDEX 01 00:00:00
  TRACK 11 AUDIO
    TITLE "Light My Fire (feat. Carl Fanini)"
    PERFORMER "Clubhouse"
    INDEX 00 04:06:67
FILE "11 Light My Fire (feat. Carl Fanini).flac" WAVE
    INDEX 01 00:00:00
  TRACK 12 AUDIO
    TITLE "The Real Thing"
    PERFORMER "Tony Di Bart"
    INDEX 00 03:35:65
FILE "12 The Real Thing.flac" WAVE
    INDEX 01 00:00:00
  TRACK 13 AUDIO
    TITLE "Sweets for My Sweet"
    PERFORMER "C.J. Lewis"
    INDEX 00 03:47:73
FILE "13 Sweets for My Sweet.flac" WAVE
    INDEX 01 00:00:00
  TRACK 14 AUDIO
    TITLE "Dedicated to the One I Love"
    PERFORMER "Bitty McLean"
    INDEX 00 03:20:53
FILE "14 Dedicated to the One I Love.flac" WAVE
    INDEX 01 00:00:00
  TRACK 15 AUDIO
    TITLE "Whatta Man (feat. En Vogue)"
    PERFORMER "Salt-N-Pepa"
    INDEX 00 03:41:15
FILE "15 Whatta Man (feat. En Vogue).flac" WAVE
    INDEX 01 00:00:00
  TRACK 16 AUDIO
    TITLE "Your Body's Callin'"
    PERFORMER "R. Kelly"
    INDEX 00 04:26:15
FILE "16 Your Body's Callin'.flac" WAVE
    INDEX 01 00:00:00
  TRACK 17 AUDIO
    TITLE "Dream On Dreamer"
    PERFORMER "The Brand New Heavies"
    INDEX 00 04:33:67
FILE "17 Dream On Dreamer.flac" WAVE
    INDEX 01 00:00:00
  TRACK 18 AUDIO
    TITLE "Caught in the Middle"
    PERFORMER "Juliet Roberts"
    INDEX 00 03:33:67
FILE "18 Caught in the Middle.flac" WAVE
    INDEX 01 00:00:00
  TRACK 19 AUDIO
    TITLE "Carry Me Home"
    PERFORMER "Gloworm"
    INDEX 00 03:18:23
FILE "19 Carry Me Home.flac" WAVE
    INDEX 01 00:00:00
  TRACK 20 AUDIO
    TITLE "Absolutely Fabulous"
    PERFORMER "Absolutely Fabulous"
    INDEX 00 03:42:03
FILE "20 Absolutely Fabulous.flac" WAVE
    INDEX 01 00:00:00
游客,如果您要查看本帖隐藏内容请回复



发表于 2019-11-7 21:17:06
尼采说:没有音乐的人生将是一场错误。我深信不疑,并且执迷不悔。
发表于 2019-11-8 03:46:35
静静地聆听音乐这“灵魂的语言”的倾诉,任乐声在内心深处激起情感的涟漪。
发表于 2019-11-9 18:24:50
当词与曲溶汇在一起,相互不能分割时,就为一首好歌曲了。
发表于 2019-11-11 19:48:27 来自手机
风格很独特,很会演绎特色的歌手。谢谢分享。
发表于 2019-11-12 02:15:24
听过一些,很好的无损音乐FlAC音乐下载.谢谢分享了。
发表于 2019-11-12 11:50:11 来自手机
欣赏音乐,需要有辨别音律的耳朵,对于不辨音乐的耳朵说来,最美的音乐也毫无意义。
发表于 2019-11-13 07:57:54
让我们的生活充满音乐,让音乐为我们人类造福。
发表于 7 天前 来自手机
好无损音乐FlAC音乐下载音乐感受就是不一样.
发表于 6 天前
音乐是一种语言,它能够确切地反映个人和人民的精神品质。
您需要登录后才可以回帖 登录 | 立即注册  

本版积分规则

逛了这么久,何不进去瞧瞧!

登录 发布 快速回复 返回顶部 返回列表