设为首页 收藏本站 开启辅助访问 放到桌面
 找回密码
 立即注册

QQ登录

只需一步,快速开始

扫一扫,访问微社区

点击进入授权页面

只需一步,快速开始

或者

[华语无损] [正版原抓]群星 - HI-FI极品测试Ⅲ[伤情男声]2015 WAV+CUE+分轨

QQ截图20230106140759.jpg
Exact Audio Copy V1.0 beta 3 from 29. August 2011

EAC 抓取日志文件从21. 九月 2018, 22:20

群星 / HI-FI极品测试Ⅲ

使用驱动器  :TEAC  CD-W54E   Adapter: 2  ID: 0

读取模式      : 可靠Secure
使用精确流     : 是
清空音频缓存    : 是
使用 C2 指示器 : 否

组合读写偏移校正:             : 685
读取 Lead-In 和 Lead-Out : 否
用静音填充抓取中丢失偏移的采样       : 是
去除首尾静音块               : 否
在CRC 计算中使用了空样本       : 是
已用接口                  : Win NT 及 2000 本地 Win32 接口

所用输出模式: : 内部 WAV 函数
样本格式    : 44.100 Hz; 16 Bit; 立体声


已抓取 CD 的 TOC

     音轨 |    起始    |    长度    |  起始扇区  |  结束扇区  
    --------------------------------------------
      1 |  0:00.00 |  4:26.23 |      0 |  19972
      2 |  4:26.23 |  5:17.07 |  19973 |  43754
      3 |  9:43.30 |  5:20.11 |  43755 |  67765
      4 | 15:03.41 |  5:20.48 |  67766 |  91813
      5 | 20:24.14 |  3:45.71 |  91814 | 108759
      6 | 24:10.10 |  5:27.23 | 108760 | 133307
      7 | 29:37.33 |  3:39.49 | 133308 | 149781
      8 | 33:17.07 |  6:10.66 | 149782 | 177597
      9 | 39:27.73 |  5:21.64 | 177598 | 201736
     10 | 44:49.62 |  4:35.57 | 201737 | 222418
     11 | 49:25.44 |  3:36.07 | 222419 | 238625
     12 | 53:01.51 |  4:51.26 | 238626 | 260476
     13 | 57:53.02 |  3:39.36 | 260477 | 276937
     14 | 61:32.38 |  3:17.37 | 276938 | 291749
     15 | 64:50.00 |  4:42.00 | 291750 | 312899


范围状态及错误

已选择范围

     文件名 D:\千里江陵 收藏\HI-FI极品测试Ⅲ\CDImage.wav

     峰值电平 98.5 %
     抓取速度 2.3 X
     范围质量 99.9 %
     复制 CRC 56F552F1
     复制成功

没有错误发生

状态报告结尾



专辑名称:HI-FI极品测试Ⅲ[伤情男声]
专辑歌手:群星
发行公司:香港百利唱片
发行时间:2015年05月
资源格式:正版CD低速原抓WAV+CUE+分轨+LOG+600dpi高清三图
抓轨方式:EAC软件+日本TEAC  CD-W54E光驱


专辑简介:

天籁般的歌声穿透心灵,与灵魂共鸣,HIFI顶级人声测试天碟。最具HIFI震撼的发烧男声,一旦拥有,别无所求;此声一起,发烧无限。录音及其乐曲精致悦耳,呈现高品质的纹理与质感,理想中渴望企及的声色之美,淋漓尽致地发挥到极限境界!


专辑曲目:

01.我真的好难过—九龙
02.一生爱你千百回—白马多吉
03.当你老了—李健
04.你是我心爱的姑娘—张勤文
05.时间都去哪儿了—九龙
06.父亲的草原母亲的河—云飞
07.南屏晚钟—王晰
08.缘份五月—江智民
09.爱在草原—呼斯楞
10.草帽歌—阿强
11.天籁之爱—李嘉石
12.风吹麦浪—康康
13.真的真的好爱你—小骆驼
14.烟雨蒙蒙—陈宁
15.月亮代表我的心—赵鹏
购买主题 已有 4 人购买  本主题需向作者支付 9 乐币 才能浏览

相关帖子

发表于 2023-1-6 14:06:19
先下载收藏了。多谢楼主提供无损的
发表于 2023-1-8 13:00:54
音乐是一位好老师。它会将你的心灵从喧嚣和冗杂之中带出,带到一片静土。
发表于 2023-1-14 01:31:41
强烈支持,楼主你分享的wav格式的音乐太棒了啊!!!
发表于 2023-1-14 13:17:04 来自手机
非常喜欢的wav格式的音乐,谢谢楼主分享好音乐。
发表于 2023-1-14 22:30:13
天籁般的歌声穿透心灵,谢谢分享
发表于 2023-1-14 23:35:42
乐音,须有山之挺拔,水之流动,松之苍劲,竹之坚致,梅之俏丽,草之柔韧。
发表于 2023-1-15 03:39:43
感谢楼主提供。下载wav格式的音乐收藏。
发表于 2023-1-16 19:56:00
挺好听的wav格式的音乐,非常不错!
发表于 2023-1-18 16:52:23
真是极品wav格式的音乐呀,太给力了。
您需要登录后才可以回帖 登录 | 立即注册  

本版积分规则

12下一页

逛了这么久,何不进去瞧瞧!

登录 发布 快速回复 返回顶部 返回列表