设为首页 收藏本站 开启辅助访问 放到桌面
 找回密码
 立即注册

QQ登录

只需一步,快速开始

扫一扫,访问微社区

点击进入授权页面

只需一步,快速开始

或者

H-END超级母带索尼精选HiRes《2019年德国慕尼黑国际高端音响展试音碟》NativeDSD Presents 5 Tracks In DSD 512 Volume 1 SACD 最强音质无损古典音乐打包下载[DSF/DSD512/5.83GB]

享乐音乐论坛 - 为最强音质无损音乐而生!音乐发烧友们的美好家园。

您需要 登录 才可以下载或查看,没有帐号?立即注册  

x
母带音乐不但是无损音乐的最高境界,还是可遇而不可求的臻品音乐。
用心聆听最强音质母带无损音乐,找回顶级无损音乐发烧友的初心,让懂音乐的人深深沉醉其中。
QQ截图20211222234236.jpg
无损音乐下载类型:母带音乐下载,母盘音乐下载,母带音乐打包下载。
最强音质无损母带音乐是唯一能让你无可挑剔声音,母盘音乐是顶级音乐发烧友们的最爱。


高能预警友情提示:播放设备不好不要下,存储空间不够不要下。
2019慕尼黑国际高端音响展试音碟 (11.2MHz DSD)( NativeDSD Presents  5 Tracks In DSD 512 Volume 1 ) [11.2MHz DSD]
NativeDSD Presents  5 Tracks In DSD 512 Volume 1 , NativeDSD Presents Baroque Violin(11.2MHz DSD)DSD512 - DSD - DSF - sacd
德国慕尼黑国际高端音响展(NativeDSD Presents)H-END超级母带索尼精选(11.2MHz DSD)索尼精选Hi-Res
表演者: Feenbrothers, Les Chat Noirs, Rachel Podger, Ricardo Gallén, Yuko Mabuchi Trio
流派:最强音质母带级无损古典音乐
专辑类型: 母带级最强音质无损音乐高解析度音频专辑
发行时间: 2018-2019
唱片公司: 索尼精选音乐/Meister Music
无损音乐验证:索尼精选DSD音源百分百保真
详细参数:SACD/DSF/11.2MHz/1bit/DSD512
数据存储: 百度云加密存储|已备份|永久有效
资源类型:最强音质sacd - DSD/DSF分轨 - DSD原盘无损音乐资源
享乐音乐网:享受音乐,分享快乐!- 享乐音乐为最强音质无损音乐而生~
母盘音乐下载:DSD原盘资源 - Direct Stream Digital DSD - 最强音质DSD音乐下载 - DSD无损音乐网


母带级最强音质无损音乐专辑介绍:

DSD- DSF 最强音质无母盘资源《NativeDSD Presents  5 Tracks In DSD 512 Volume 1 SACD/11.2MHz/DSD512》SACD-DSD@享乐音乐网xlebbs.com

*目前市面上仅有少部分音频播放器型号支持11.2MHz/1bit DSD品质播放, 请您在购买前提前确认。如您的设备暂时无法支持DSD播放,建议选购FLAC版本。

NativeDSD数码录音精品!

是世界蓝调乐团中备受尊敬的成员,他是蓝调独奏冠军,并获得美国布鲁斯音乐奖提名,。这是一个广受好评的专辑,并在全球巡回演出。

We are pleased to announce the availability of Native DSD Presents 5 Tracks in DSD 512, in addition to theoriginal DSD 256 releases from the albums listed. These higher bit rate DSD 512 tracks are all pure DSDcreated. They are not up samplings, for there are no PCM or DXD conversions involved in their production.They are re-modulations of the original DSD 256 encoding modulation that produced the DSD 256 releases.The sonic advantage to these new Stereo DSD 512 releases, as with all higher DSD bit rate releases, is the ider ency passband prior to the onset of modulation noise. This results in the listener’s DAC using gentler and more phase linear filters for playback of the music.

Of course, as an audio fanatic, I like DSD over the lower FLAC (PCM) sampling rates but DXD has always been my favorite because of the “pop”.
Luckily, I had a DXD edition of the Vivaldi track to do a direct comparison with the track on this album. We are really getting somewhere with DSD 512. I wasn’t expecting much because these samples weren’t recording-to-file 512 but I hands-down prefer this DSD 512 over the DXD and this is a first for me.
It is the lack of fatigue. I didn’t notice the DXD being fatiguing before but when I go back to it after listening to the DSD 512 I clearly prefer the smooth and easy sound of the DSD 512. It is hard to put into words but there is something about the timing being less chaotic in the DSD on a micro scale so there is more discipline with the instruments.

Recording Location:
Brain and Creativity Institute’s Cammilleri Hall at University of Southern California (USC), Los Angeles,
California, St. Jude's Church, London, UK, Auditoria San Francisco, Avila, Spain, MCO, Studio 2, Hilversum,
The Netherlands, on November 18, 2018
Recording Type & Bit Rate:
DSD 256 (Tracks 1, 3, 4), Analog (Track 2), DXD (Track 5)


播放DSD格式的音乐请参考以下的方法:

使用专用DSD设备播放:
1. Native DSD:支持DSD格式的音乐播放设备

使用PC播放:
1. Native DSD:需要使用支持Native DSD的硬件和播放软件。比如索尼的播放软件Hi-Res Audio Player

http://www.sonystyle.com.cn/products/app/hires_audio_player.htm)以及相关硬件
2. DSD over PCM:需要安装相关的播放软件。比如foobar 2000播放软件+foo_input_sacd组件

享乐音乐网:享受音乐,分享快乐!- 音响发烧完美现场试音精选母带音乐打包下载 - 最强音质无损音乐格式母盘音乐下载。


母带音乐最强音质无损音乐专辑曲目列表:

1. Les Chats Noirs - La Chanson - 02:57
2. Miles Davis-Milestones, Yuko Mabuchi Trio with JJ Kirkpatrick - 04:57
3. Vivaldi-The Four Seasons - Winter, Rachel Podger, Brecon Baroque-1.Largo - 02:16
4. Barrios-La Catedral, Ricardo Gallén - 3.Allegro solemne - 03:10
5. Dave Brubeck-Take Five Reprise (Desmond), Feenbrothers - 04:21

H-END超级母带资源DSD《2019慕尼黑国际高端音响展试音碟DSD512》NativeDSD Presents  5 Tracks In DSD 512 Volume 1 Hi-Res[11.2MHz DSD]@享乐音乐网 xlebbs.com
│  │  │  2019慕尼黑国际高端音响展试音碟母带音源 NativeDSD Presents  5 Tracks In DSD 512 Volume 1 HiRes - DSD512 - 01.Les Chats Noirs – La Chanson.dsf
│  │  │  2019慕尼黑国际高端音响展试音碟母带音源 NativeDSD Presents  5 Tracks In DSD 512 Volume 1 HiRes - DSD512 - 02.Miles Davis-Milestones, Yuko Mabuchi Trio with JJ Kirkpatrick.dsf
│  │  │  2019慕尼黑国际高端音响展试音碟母带音源 NativeDSD Presents  5 Tracks In DSD 512 Volume 1 HiRes - DSD512 - 03.Vivaldi-The Four Seasons – Winter, Rachel Podger, Brecon Baroque-1.Largo.dsf
│  │  │  2019慕尼黑国际高端音响展试音碟母带音源 NativeDSD Presents  5 Tracks In DSD 512 Volume 1 HiRes - DSD512 - 04.Barrios-La Catedral, Ricardo Gallén – 3.Allegro solemne.dsf
│  │  │  2019慕尼黑国际高端音响展试音碟母带音源 NativeDSD Presents  5 Tracks In DSD 512 Volume 1 HiRes - DSD512 - 05.Dave Brubeck-Take Five Reprise (Desmond), Feenbrothers.dsf




foobar2000 1.4.6 / Dynamic Range Meter 1.1.1
log date: 2021-09-27 08:46:08

--------------------------------------------------------------------------------
Statistics for: 01-Les Chats Noirs-La Chanson-DSD512
Number of samples: 4062449664
Duration: 3:00
--------------------------------------------------------------------------------

                 Left              Right

Peak Value:     -9.35 dB   ---     -9.18 dB   
Avg RMS:       -23.09 dB   ---    -23.19 dB   
DR channel:     11.73 dB   ---     11.99 dB   
--------------------------------------------------------------------------------

Official DR Value: DR12

Samplerate:        22579200 Hz / PCM Samplerate: 352800 Hz
Channels:          2
Bits per sample:   24
Bitrate:           45158 kbps
Codec:             DSD512
================================================================================
--------------------------------------------------------------------------------
Statistics for: 03-Vivaldi-The Four Seasons-Winter, Rachel Podger, Brecon Baroque-1.Largo-DSD512
Number of samples: 3066857472
Duration: 2:16
--------------------------------------------------------------------------------

                 Left              Right

Peak Value:    -16.19 dB   ---    -19.11 dB   
Avg RMS:       -30.91 dB   ---    -32.74 dB   
DR channel:     11.21 dB   ---     11.54 dB   
--------------------------------------------------------------------------------

Official DR Value: DR11

Samplerate:        22579200 Hz / PCM Samplerate: 352800 Hz
Channels:          2
Bits per sample:   24
Bitrate:           45158 kbps
Codec:             DSD512
================================================================================
--------------------------------------------------------------------------------
Statistics for: 04-Barrios-La Catedral, Ricardo Gallén-3.Allegro solemne-DSD512
Number of samples: 4297574400
Duration: 3:10
--------------------------------------------------------------------------------

                 Left              Right

Peak Value:     -8.54 dB   ---    -10.10 dB   
Avg RMS:       -30.13 dB   ---    -30.80 dB   
DR channel:     14.87 dB   ---     13.88 dB   
--------------------------------------------------------------------------------

Official DR Value: DR14

Samplerate:        22579200 Hz / PCM Samplerate: 352800 Hz
Channels:          2
Bits per sample:   24
Bitrate:           45158 kbps
Codec:             DSD512
================================================================================
--------------------------------------------------------------------------------
Statistics for: 02-Miles Davis-Milestones, Yuko Mabuchi-DSD512
Number of samples: 6702409728
Duration: 4:57
--------------------------------------------------------------------------------

                 Left              Right

Peak Value:     -9.79 dB   ---     -9.53 dB   
Avg RMS:       -28.00 dB   ---    -27.63 dB   
DR channel:     14.20 dB   ---     14.52 dB   
--------------------------------------------------------------------------------

Official DR Value: DR14

Samplerate:        22579200 Hz / PCM Samplerate: 352800 Hz
Channels:          2
Bits per sample:   24
Bitrate:           45158 kbps
Codec:             DSD512
================================================================================



母带级高品质无损母带音乐下载发烧友必备。
Lossless Mastering Music 母带音乐打包下载:
整张母盘音乐专辑全部为高品质无损音乐,母带音乐下载回复可见。
亲爱的无损音乐发烧友,如果您要查看本帖隐藏内容请回复
1、世间所有的相遇,都是久别重逢,享乐音乐网愿与您一起享受音乐,分享快乐!
2、享乐音乐网是免费公益性非盈利网站,旨在方便用户查找学习资料,交流听歌心得。
3、本主题所有内容均为互联网公开信息,由网友收集整理发布分享,仅限交流测试使用。
4、享乐音乐仅对作品介绍展示,不直接提供下载服务,其它相关方面信息需要您自行判断。
5、版权归唱片公司和歌手所有,如侵犯您的权益,请发送邮件通知我们,我们将及时删除。
6、如果你喜欢主题所述内容,请你通过正规渠道购买正版,交流测试资源不可用于商业用途。

享乐音乐论坛-为高品质无损音乐而生!享受音乐,分享快乐!尽在享乐音乐网。
海量母带音乐发烧音乐大碟,专门提供母带音乐下载,最强音质母盘无损音乐资源免费打包下载。
高品质无损母带音乐下载网站,内容由网友分享仅供学习交流之用,版权归唱片公司所有,不可用于商业盈利用途,否则一切后果自行承担!

相关帖子

发表于 2021-12-23 00:59:48
建筑是凝固的音乐。享乐音乐网,享受音乐,分享快乐!
发表于 2021-12-23 02:33:05
好音乐收下了,谢谢楼主发布。
发表于 2021-12-23 08:21:59 来自手机
楼主好人 谢谢分享好母带音乐下载。~~
发表于 2021-12-23 13:03:41
H-END超级母带索尼精选HiRes《2019年德国慕尼黑国际高端音响展试音碟》NativeDSD Presents 5 Tracks In DSD 512 Volume 1 SACD 最强音质无损古典音乐
发表于 2021-12-23 13:59:09
先感谢楼主找到好歌 再下载慢慢听
发表于 2021-12-24 01:52:05
无损音乐我的最爱,我只是突然很怀念那些年听歌的时光。
发表于 2021-12-24 09:30:38
很好听的母盘音乐节奏,谢谢分享!
发表于 2021-12-25 14:23:18
收下了,好音乐,一定要支持.
发表于 2021-12-25 15:14:09
享受音乐论坛带给我们的幸福,谢谢~
您需要登录后才可以回帖 登录 | 立即注册  

本版积分规则

1234下一页

逛了这么久,何不进去瞧瞧!

登录 发布 快速回复 返回顶部 返回列表