设为首页 收藏本站 开启辅助访问 放到桌面
 找回密码
 立即注册

QQ登录

只需一步,快速开始

扫一扫,访问微社区

点击进入授权页面

只需一步,快速开始

或者

[华语无损] 群星《十年辉煌中国歌曲排行榜之2002》WAV整轨/CT

9 61
lmn 发表于 2020-1-15 20:18:29 |阅读模式 |复制链接

马上注册,海量高品质无损音乐打包下载。

您需要 登录 才可以下载或查看,没有帐号?立即注册  

x
TRACK 01 AUDIO
    TITLE "没有什么不可以"
    PERFORMER "零点乐队"
    INDEX 01 00:00:00
  TRACK 02 AUDIO
    TITLE "一天"
    PERFORMER "许巍"
    INDEX 01 05:01:10
  TRACK 03 AUDIO
    TITLE "在雨中"
    PERFORMER "汪峰"
    INDEX 01 10:07:27
  TRACK 04 AUDIO
    TITLE "我需要你"
    PERFORMER "满文军"
    INDEX 01 15:13:38
  TRACK 05 AUDIO
    TITLE "开往春天的地铁"
    PERFORMER "羽泉"
    INDEX 01 20:10:16
  TRACK 06 AUDIO
    TITLE "相爱的地方"
    PERFORMER "零点乐队"
    INDEX 01 24:02:51
  TRACK 07 AUDIO
    TITLE "奇迹"
    PERFORMER "满江"
    INDEX 01 26:19:15
  TRACK 08 AUDIO
    TITLE "无所谓"
    PERFORMER "杨坤"
    INDEX 01 31:07:39
  TRACK 09 AUDIO
    TITLE "晴朗"
    PERFORMER "老狼"
    INDEX 01 35:36:18
  TRACK 10 AUDIO
    TITLE "哭泣的百合花"
    PERFORMER "孙悦"
    INDEX 01 40:42:36
  TRACK 11 AUDIO
    TITLE "苍天在上"
    PERFORMER "郑钧"
    INDEX 01 45:40:10
  TRACK 12 AUDIO
    TITLE "柏拉图广场"
    PERFORMER "赵凯"
    INDEX 01 50:31:53
  TRACK 13 AUDIO
    TITLE "如果爱搁浅"
    PERFORMER "林依伦"
    INDEX 01 54:56:07
  TRACK 14 AUDIO
    TITLE "来吧"
    PERFORMER "韩红"
    INDEX 01 59:53:48
  TRACK 15 AUDIO
    TITLE "我爱的她不爱我"
    PERFORMER "孙楠"
    INDEX 01 64:13:30


下载地址:
十年辉煌中国歌曲排行榜之2002.rar:
发表于 2020-1-16 01:01:35 来自手机
音乐是医治思想疾病的良药。享乐音乐网,享受音乐,分享快乐!
发表于 2020-1-18 19:14:56
又有好wav格式的音乐可以下载了,感谢楼主,感谢享乐音乐论坛
发表于 2020-1-19 22:55:41
工作很枯燥,是音乐让我相信人生是会很美好的。
发表于 2020-1-20 05:51:49
我个人理解的摇滚是一种精神,他并不局限于某种音乐风格。
发表于 2020-1-20 21:14:57
她的音乐是不食人间烟火的天籁之声,她的歌声充满着无穷的吸引力,令人陶醉万分。
发表于 2020-1-21 17:23:32 来自手机
音乐不分国界,好音乐能净化心灵,陶冶情操。
发表于 2020-1-21 20:30:02 来自手机
wav格式的音乐让生活更美好了。支持ING!
发表于 2020-1-22 17:41:11
用体育锻炼身体,用音乐陶冶灵魂。
发表于 7 天前
每一个跳动的音符都能让思绪在时空中穿梭,久久沉醉在其中。
您需要登录后才可以回帖 登录 | 立即注册  

本版积分规则

逛了这么久,何不进去瞧瞧!

登录 发布 快速回复 返回顶部 返回列表