设为首页 收藏本站 开启辅助访问 放到桌面
 找回密码
 立即注册

QQ登录

只需一步,快速开始

扫一扫,访问微社区

点击进入授权页面

只需一步,快速开始

或者

[华语无损] 群星《十年辉煌中国歌曲排行榜之2001》WAV整轨/CT

9 60
lmn 发表于 2020-1-15 20:14:23 |阅读模式 |复制链接

马上注册,海量高品质无损音乐打包下载。

您需要 登录 才可以下载或查看,没有帐号?立即注册  

x
TRACK 01 AUDIO
    TITLE "水姻缘"
    PERFORMER "田震"
    INDEX 00 00:00:00
    INDEX 01 00:00:01
  TRACK 02 AUDIO
    TITLE "时间飞了"
    PERFORMER "李泉"
    INDEX 01 04:29:70
  TRACK 03 AUDIO
    TITLE "一笑而过"
    PERFORMER "那英"
    INDEX 01 08:58:01
  TRACK 04 AUDIO
    TITLE "深呼吸"
    PERFORMER "羽泉"
    INDEX 01 13:35:15
  TRACK 05 AUDIO
    TITLE "月牙泉"
    PERFORMER "田震"
    INDEX 01 18:37:15
  TRACK 06 AUDIO
    TITLE "冲出你的窗口"
    PERFORMER "朴树"
    INDEX 01 22:20:31
  TRACK 07 AUDIO
    TITLE "一生有你"
    PERFORMER "水木年华"
    INDEX 01 27:08:30
  TRACK 08 AUDIO
    TITLE "柔情似水"
    PERFORMER "孙悦"
    INDEX 01 31:27:40
  TRACK 09 AUDIO
    TITLE "爱就爱了"
    PERFORMER "陈琳"
    INDEX 01 36:00:01
  TRACK 10 AUDIO
    TITLE "寂寞独白"
    PERFORMER "林依轮"
    INDEX 01 40:09:58
  TRACK 11 AUDIO
    TITLE "梦的眼睛"
    PERFORMER "孙楠"
    INDEX 01 44:29:00
  TRACK 12 AUDIO
    TITLE "好好过吧"
    PERFORMER "零点乐队"
    INDEX 01 49:41:06
  TRACK 13 AUDIO
    TITLE "叶子"
    PERFORMER "羽泉"
    INDEX 01 53:19:05
  TRACK 14 AUDIO
    TITLE "故乡"
    PERFORMER "许巍"
    INDEX 01 58:26:42
  TRACK 15 AUDIO
    TITLE "醒了"
    PERFORMER "韩红"
    INDEX 01 63:46:32


下载地址:
十年辉煌中国歌曲排行榜之2001.rar:
发表于 2020-1-16 01:01:45
灰常感谢啊!好听的很哟。
发表于 2020-1-17 01:35:58 来自手机
当我听到音乐时,我的心会疾速跳动,充满了生命力,就像是起风时的商船队。
发表于 2020-1-18 19:14:56
音乐就是这样让人回味无穷,音乐,记下了我心中的倔强的伤和微微的笑。
发表于 2020-1-20 21:14:57
让优美的音乐悄悄地带走你身边的伤感,让柔和的夏风静静地陪伴你走过一段难忘的时光。
发表于 2020-1-21 11:01:02 来自手机
好听的音乐感动着我,使我的心灵得到净化和陶冶。
发表于 2020-1-21 18:42:48 来自手机
看了这个作品 享受wav格式的音乐的美妙啊
发表于 6 天前 来自手机
耳机一塞,自成世界,高山流水,风花雪月,尽在脑海。
发表于 6 天前
浮云柳絮无根蒂,天地阔远随飞扬。
发表于 5 天前 来自手机
耳机一塞,自成世界,高山流水,风花雪月,尽在脑海。
您需要登录后才可以回帖 登录 | 立即注册  

本版积分规则

逛了这么久,何不进去瞧瞧!

登录 发布 快速回复 返回顶部 返回列表