设为首页 收藏本站 开启辅助访问 放到桌面
 找回密码
 立即注册

QQ登录

只需一步,快速开始

扫一扫,访问微社区

点击进入授权页面

只需一步,快速开始

或者

[高清古典] NEW YEAR'S CONCERT 2019 维也纳新年音乐会2019年超清+蓝光原盘打包下载[HD1080P/MP4/TS/BD/29GB]

50 9031
莫扎特的忧伤 发表于 2019-1-2 21:21:41 |阅读模式   |复制链接

马上注册,海量高品质无损音乐打包下载。

您需要 登录 才可以下载或查看,没有帐号?立即注册  

x
Neujahrskonzert  New Year's Concert 2019

古典音乐最大的作用就在于能够引人积极向上,给予灵魂平静和美好。
Neujahrskonzert 2019年维也纳新年音乐会 New Year's Concert 2019高清蓝光视频打包下载。
古典音乐是门精致的艺术,有着丰富的文化底蕴,可以开发你的想象力,提升你的艺术修养,源远流长经久不衰。
s29959413.jpg

New Year's Concert 2019 / Neujahrskonzert 2019 / Concert Du Nouvel An 2019
维也纳爱乐乐团新年音乐会1月1日在维也纳金色大厅隆重登场,向全世界乐迷献上一份传统的新年大礼。

今年音乐会的曲目依然以施特劳斯家族4位成员的作品为主,卡尔·米歇尔·齐雷尔的作品《肖恩菲尔德进行曲》等6首曲目首次在维也纳新年音乐会上亮相。德国指挥家克里斯蒂安·蒂勒曼首次登上维也纳新年音乐会的指挥台。

蒂勒曼在演出前接受奥地利媒体采访时说,过去几年他和维也纳爱乐乐团之间越来越熟悉,不过在新年音乐会的排练中,他仍然能“学习很多东西”。

新年音乐会的最后两首曲目——《蓝色多瑙河》和《拉德斯基进行曲》将整场演出推向高潮。《蓝色多瑙河》演奏前,蒂勒曼带领乐队齐声送上“新年快乐”的祝福。

演奏最后的曲目《拉德斯基进行曲》时,现场观众积极互动,在蒂勒曼的指挥下,不时合着节拍鼓掌配合,现场气氛热烈欢快。

1939年12月31日,维也纳金色大厅举办了首届新年音乐会,从1941年起改在每年元旦上午举行。奥地利广播公司从1959年开始进行电视实况转播,如今转播范围超过90个国家和地区。

QQ截图20190102184105.png

2019年维也纳新年音乐会将由德国指挥家克里斯蒂安·蒂勒曼执棒。这将是他首次执棒维也纳新年音乐会。2019年,蒂勒曼将年满60岁,这是公认的指挥家的黄金年龄。巧合的是,2019年是维也纳新年音乐会通过电视转播的第60个年头,于是有乐迷笑称,大概这也是蒂勒曼能够首次执棒维也纳新年音乐会的一个重要原因。

克里斯蒂安·蒂勒曼在当今世界古典音乐界备受推崇,被公认为是诠释德奥作品的权威之一,他尤其擅长演绎瓦格纳和理查·施特劳斯的作品。对于中国的古典乐迷来说蒂勒曼并不陌生,近些年他曾经多次来到中国演出,北京、上海、广州等城市的音乐厅,都曾经响起过他指挥棒下纯正的“德意志之声”。因为身材高大,大家亲切地称呼蒂勒曼“大熊”。

2019蒂勒曼的维也纳新年音乐会,是继1987卡拉扬,1989小克莱伯之后第三场让我印象深刻的新年音乐会。 大熊是维也纳人特别喜欢的指挥,也算是硕果仅存的正统德奥的指挥。 只是受限于新年音乐会的曲目,自由发挥的余地不大。 但是还是有大熊的烙印:正统德奥。 连续看两场顶级乐团的演出实况,幸福幸福。

2019年维也纳新年音乐会曲目单

Neujahrskonzert  New Year's Concert 2019 维也纳新年音乐会上半场曲目

Carl Michael Ziehrer: Sch?nfeld-Marsch, op. 422
卡尔·米歇尔·齐莱尔   冯·勋菲尔德男爵进行曲,作品第422号

Josef Strau?: Transactionen. Walzer, op.184
约瑟夫·施特劳斯   交易圆舞曲,作品第184号

Joseph Hellmesberger: Elfenreigen
约瑟夫·赫尔梅斯伯格   小精灵的轮舞

Johann Strau?: Express. Polka schnell, op. 311
约翰·施特劳斯   特快列车快速波尔卡,作品第311号

Johann Strau?: Nordseebilder. Walzer, op. 390
约翰·施特劳斯   北海风光圆舞曲,作品第390号

Eduard Strau?: Mit Extrapost. Polka schnell, op. 259
爱德华·施特劳斯   特快邮车快速波尔卡,作品第259号

Neujahrskonzert  New Year's Concert 2019 维也纳新年音乐会下半场曲目

Johann Strau?: Ouvertüre zur Operette "Der Zigeunerbaron"
约翰·施特劳斯   吉普赛男爵序曲

Josef Strau?: Die T?nzerin. Polka francaise, op. 227
约瑟夫·施特劳斯   女舞蹈家法兰西波尔卡,作品第227号

Johann Strau?: Künstlerleben. Walzer, op. 316
约翰·施特劳斯   艺术家的生活圆舞曲,作品第316号

Johann Strau?: Die Bajadere. Polka schnell, op. 351
约翰·施特劳斯   印度舞伎快速波尔卡,作品第351号

Eduard Strau?: Opern-Soiree. Polka francaise, op. 162
爱德华·施特劳斯   歌剧院晚会法兰西波尔卡,作品第162号

Johann Strau?: Eva-Walzer. Nach Motiven aus "Ritter Pásmán"
约翰·施特劳斯   艾娃圆舞曲(选自轻歌剧《骑士帕斯曼》)

Johann Strau?: Csárdás aus ?Ritter Pásmán“, op. 441
约翰·施特劳斯   查尔达什舞曲(选自轻歌剧《骑士帕斯曼》)

Johann Strau?: Egyptian March, op. 335
约翰·施特劳斯   埃及进行曲,作品第335号

Joseph Hellmesberger: Entr'acte Valse
约瑟夫·赫尔梅斯伯格   幕间圆舞曲

Johann Strau?: Lob der Frauen. Polka mazur, op. 315
约翰·施特劳斯   妇女颂玛祖卡波尔卡,作品第315号

Josef Strau?: Sph?renkl?nge. Walzer, op. 235
约瑟夫·施特劳斯   天体乐声圆舞曲,作品第235号

Neujahrskonzert  New Year's Concert 2019 维也纳新年音乐会加演曲目

Johann Strau?: Im Sturmschritt. Polka schnell, op. 348
约翰·施特劳斯   飞奔快速波尔卡,作品第348号

Johann Strau?: An der sch?nen blauen Donau-Walzer,op. 314
约翰·施特劳斯   蓝色多瑙河圆舞曲,作品第314号

Johann Strau?/Vater: Radetzky Marsch,op. 228
老约翰·施特劳斯   拉德茨基进行曲,作品第228号

NEW YEAR'S CONCERT 2019 维也纳新年音乐会2019年超清视频打包下载,Neujahrskonzert 2019年维也纳新年音乐会视频文件信息:

2019维也纳年音乐会 Neujahrskonzert  New Year's Concert 2019@享乐音乐网xlebb.jpg

General
Complete name                  : 2019维也纳年音乐会 Neujahrskonzert New Year's Concert 2019@享乐音乐网xlebbs.com.mp4
Format                         : MPEG-4
Format profile                 : Base Media
Codec ID                       : isom (isom/mp42)
File size                      : 3.56 GiB
Duration                       : 2h 40mn
Overall bit rate mode          : Variable
Overall bit rate               : 3 174 Kbps
Season                         : 0
Movie name                     : Neujahrskonzert der Wiener Philharmoniker 2019
Genre                          : Musik und Konzerte
Description                    : Kein Neujahrstag ohne Neujahrskonzert der Wiener Philharmoniker! Auch 2019 übertr?gt das ZDF das Konzerthighlight zum Jahresauftakt, live aus dem Goldenen Saal des Wiener Musikvereins.\nEs ist das gr??te klassische Musikereignis der Welt und wird in über 90 L?nder übertragen. Am Dirigentenpult st...
Encoded date                   : UTC 2019-01-01 13:19:50
Tagged date                    : UTC 2019-01-01 13:19:50
Writing application            : YouTV.de
Part_ID                        : 0
TVNetworkName                  : ZDF
HDVideo                        : Yes

Video
ID                             : 1
Format                         : AVC
Format/Info                    : Neujahrskonzert New Year's Concert 2019
Format profile                 : High&L3.2
Format settings, CABAC         : Yes
Format settings, ReFrames      : 3 frames
Codec ID                       : avc1
Codec ID/Info                  : Advanced Video Coding
Duration                       : 2h 40mn
Duration_FirstFrame            : 7ms
Bit rate mode                  : Variable
Bit rate                       : 3 001 Kbps
Maximum bit rate               : 7 800 Kbps
Width                          : 1 280 pixels
Height                         : 720 pixels
Display aspect ratio           : 16:9
Frame rate mode                : Constant
Frame rate                     : 50.000 fps
Color space                    : YUV
Chroma subsampling             : 4:2:0
Bit depth                      : 8 bits
Scan type                      : Progressive
Bits/(Pixel*Frame)             : 0.065
Stream size                    : 3.37 GiB (95%)
Language                       : English
Encoded date                   : UTC 2019-01-01 13:19:50
Tagged date                    : UTC 2019-01-01 13:19:50

Audio
ID                             : 2
Format                         : AAC
Format/Info                    : Neujahrskonzert New Year's Concert 2019
Format profile                 : LC
Codec ID                       : 40
Duration                       : 2h 40mn
Source duration                : 2h 40mn
Bit rate mode                  : Constant
Bit rate                       : 240 Kbps
Channel(s)                     : 2 channels
Channel positions              : Front: L R
Sampling rate                  : 96.0 KHz
Frame rate                     : 46.875 fps (1024 spf)
Compression mode               : Lossy
Stream size                    : 184 MiB (5%)
Source stream size             : 184 MiB (5%)
Language                       : English
Encoded date                   : UTC 2019-01-01 13:19:50
Tagged date                    : UTC 2019-01-01 13:19:50



Neujahrskonzert  2019年维也纳新年音乐会
NEW YEAR'S CONCERT 2019 维也纳新年音乐会2019年超清蓝光视频打包下载回复可见:
游客,如果您要查看本帖隐藏内容请回复

享乐音乐论坛-为高品质无损音乐而生!享受音乐,分享快乐!尽在享乐音乐网。
专业提供无损音乐格式的古典音乐下载,西方古典音乐合集资源打包下载,高品质无损古典音乐下载免费网站。
古典音乐打包免费下载网站,内容由网友分享仅供学习交流之用,版权归唱片公司所有,不可用于商业盈利用途,否则一切后果自行承担!

发表于 2019-1-2 21:23:48
许多年轻人在学习音乐时学会了爱。
发表于 2019-1-3 15:15:40
最新出来的。我要!
发表于 2019-1-3 15:28:57
好东西啊 谢谢分享!!!
发表于 2019-1-3 15:56:55
感谢楼主为我们提供最美丽的资源
发表于 2019-1-3 16:31:20
感谢楼主辛苦上传 2019 维也纳新年音乐会。
发表于 2019-1-4 03:25:13
鉴赏音乐的最大秘诀是用心听音乐。
发表于 2019-1-4 06:40:48
感谢楼主为我们提供最美丽的资源
发表于 2019-1-4 12:26:04
终于可以看到链接了!2019新年音乐会会成为经典,大熊强弱快慢的处理表现突出又恰到好处!
发表于 2019-1-4 13:29:42
聆听高品质无损音乐可以治心病。哈哈。
您需要登录后才可以回帖 登录 | 立即注册  

本版积分规则

逛了这么久,何不进去瞧瞧!

登录 发布 快速回复 返回顶部 返回列表