设为首页 收藏本站 开启辅助访问 放到桌面
 找回密码
 立即注册

QQ登录

只需一步,快速开始

扫一扫,访问微社区

点击进入授权页面

只需一步,快速开始

或者

[高清古典] NEW YEAR'S CONCERT 2018 维也纳新年音乐会2018年高清+蓝光BD视频打包下载 [HD1080P/MP4/TS/19GB]

34 6255
悦耳之音 发表于 2018-1-2 22:02:29 |阅读模式 |复制链接

马上注册,海量高品质无损音乐打包下载。

您需要 登录 才可以下载或查看,没有帐号?立即注册  

x
古典音乐最大的作用就在于能够引人向上,给予灵魂平静和美好。
Neujahrskonzert  2018年维也纳新年音乐会 New Year's Concert 2018高清蓝光视频打包下载。
而且古典音乐还有着深刻思想的内容,无与伦比精致的技术结构,最经得起时间考验的华丽与高雅。
QQ截图20180102192248.jpg


维也纳爱乐Vienna Philharmonic
  里卡尔多·穆蒂Riccardo Muti (指挥)
  ◎意大利指挥大师里卡尔多·穆蒂第五次执棒维也纳新年音乐会
  ◎穆蒂曾与维也纳爱乐乐团合作过约500场音乐会
  2018年维也纳新年音乐会是世界上最著名,最引人注目的古典音乐盛会,除了金色大厅现场的三千名幸运观众之外,更吸引了九十多个国家、超过四千万人观看或者收听。这个以演出施特劳斯家族作品闻名的音乐节庆,每年邀请的指挥家同样是万众瞩目的焦点,2018年维也纳新年音乐会由意大利指挥大师里卡尔多·穆蒂担任指挥,这也是他第五次执棒维也纳新年音乐会(1993年、1997年、2000年、2004年)。
  作为当今世界*具艺术水准的指挥大师,穆蒂曾执掌伦敦爱乐乐团、费城交响乐团等世界级乐团。穆蒂与维也纳爱乐乐团的合作开始于1971年,自那时起,穆蒂曾与乐团进行了近500场音乐会,并建立了十分融洽的关系。而今年这场维也纳新年音乐会也见证了他们的再度完美合作。

QQ截图20180102194417.jpg
NEW YEAR'S CONCERT 2018 维也纳新年音乐会2018年高清+蓝光BD视频打包下载资源分享:

2018年维也纳新年音乐会将由意大利指挥家里卡尔多·穆蒂指挥,这不仅是他第五次执棒维也纳新年音乐会,也是自他首次执棒后的第25年。距离他上一次(2004年)指挥维也纳新年音乐会已经过去14年,本次穆蒂的回归让人有了久违的感觉。


穆蒂的回归,让我们又看到了一线上世纪90年代维也纳新年音乐会的气息,同时,我们也不难发现,穆蒂为我们奉献的曲目极具他的个人魅力。首先,如同他的往届维也纳新年音乐会,2018年的曲目单中夹杂了不少首演作品。穆蒂一如既往地为我们挖掘着奥地利更深层的声音,让我们得以体会平时难得一闻的维也纳之声。其次,这些曲目中,还有一些涉及意大利题材的作品。比如老约翰·施特劳斯的《威廉·退尔》加洛普、约翰·施特劳斯的《假面舞会》四对舞等等。



2018年维也纳新年音乐会的曲目以施特劳斯家族中的老约翰·施特劳斯和约翰·施特劳斯、约瑟夫·施特劳斯父子作主打,爱德华·施特劳斯则没有登场。此外,音乐会还选择了老朋友弗朗茨·冯·苏佩登场,将演奏他的《薄伽丘》序曲。另外值得注意的是,2018年是意大利作曲家焦阿吉诺·罗西尼逝世150周年。这场新年音乐会虽然没有让罗西尼的作品直接露面,却选择了老约翰·施特劳斯的《威廉·退尔》加洛普。这首加洛普改编自罗西尼的《威廉·退尔》序曲的高潮部分,是一段大家耳熟能详的旋律。

一如延续了多年的传统,2018年的维也纳新年音乐会再次出现了首度登台的作曲家的作品,他就是奥匈帝国时期的作曲家阿尔冯斯·齐布尔卡,音乐会将要上演他的《史蒂芬妮》加沃特舞曲。据说,奥地利皇子鲁道夫和比利时公主史蒂芬妮结婚时,作曲家齐布尔卡写下了这首《史蒂芬妮》加沃特舞曲献给公主。随后,这首曲子也成为19世纪颇受欢迎的沙龙舞曲。

除了若干首演作品及生僻作品,穆蒂在2018年维也纳新年音乐会还选择了不少旋律优美、颇受好评的作品,诸如约翰·施特劳斯的《维也纳森林的故事》圆舞曲、《城市与乡村》玛祖卡波尔卡及《南国玫瑰》圆舞曲等等,这些作品大多出现在音乐会下半场的后半段。新老作品的先后出现,既让观众领略了维也纳独特的音乐风采,又带来了新年的欢乐气息,相信这种编排会在音乐会当天收获掌声。



NEW YEAR'S CONCERT 2018 维也纳新年音乐会曲目单:


NEW YEAR'S CONCERT 2018 维也纳新年音乐上半场:

Johann Strau?: Einzugsmarsch aus der Operette ?Der Zigeunerbaron“, ohne op.
约翰·施特劳斯   入城式进行曲(选自轻歌剧《吉普赛男爵》)

Josef Strau?: Wiener Fresken. Walzer, op. 249
约瑟夫·施特劳斯   维也纳的湿壁画圆舞曲,作品第249号

Johann Strau?: Brautschau. Polka, op. 417
约翰·施特劳斯   相亲波尔卡(选自轻歌剧《吉普赛男爵》),作品第417号

Johann Strau?: Leichtes Blut. Polka schnell, op. 319
约翰·施特劳斯   轻如鸿毛快速波尔卡,作品第319号

Johann Strau? Vater: Marienwalzer, op.212
老约翰·施特劳斯   玛丽安圆舞曲,作品第212号

Johann Strau? Vater: Wilhelm Tell Galopp, op. 29b
老约翰·施特劳斯   威廉·退尔加洛普,作品第29b号


NEW YEAR'S CONCERT 2018 维也纳新年音乐下半场:

Franz von Suppé: Ouvertüre zu "Boccaccio"
弗朗茨·冯·苏佩   薄伽丘序曲

Johann Strau?: Myrthenblüten. Walzer, op. 395
约翰·施特劳斯   桃金娘之花圆舞曲,作品第395号

Alfons Czibulka: Stephanie-Gavotte, op. 312
阿尔冯斯·齐布尔卡   史蒂芬妮加沃特舞曲,作品第312号

Johann Strau?: Freikugeln. Polka schnell, op. 326
约翰·施特劳斯   魔弹快速波尔卡,作品第326号

Johann Strau?: Geschichten aus dem Wienerwald. Walzer, op. 325
约翰·施特劳斯   维也纳森林的故事圆舞曲,作品第325号

Johann Strau?: Fest-Marsch, op. 452
约翰·施特劳斯   庆典进行曲,作品第452号

Johann Strau?: Stadt und Land. Polka mazur, op. 322
约翰·施特劳斯   城市与乡村玛祖卡波尔卡,作品第322号

Johann Strau?: Un ballo in maschera. Quadrille, op. 272
约翰·施特劳斯   假面舞会四对舞,作品第272号

Johann Strau?: Rosen aus dem Süden. Walzer, op. 388
约翰·施特劳斯   南国玫瑰圆舞曲,作品第388号

Josef Strau?: Eingesendet. Polka schnell, op. 240
约瑟夫·施特劳斯   读者来信快速波尔卡,作品第240号

NEW YEAR'S CONCERT 2018 维也纳新年音乐会加演:

Johann Strau?: Unter Donner und Blitz, Polka schnell, op. 324
约翰·施特劳斯   电闪雷鸣快速波尔卡,作品第324号

Johann Strau?: An der sch?nen blauen Donau. Walzer, op. 314
约翰·施特劳斯   蓝色多瑙河圆舞曲,作品第314号

Johann Strau? Vater: Radetzkymarsch, op. 228
老约翰·施特劳斯   拉德茨基进行曲,作品第228号

NEW YEAR'S CONCERT 2018 维也纳新年音乐会2018年高清视频打包下载 ,Neujahrskonzert  2018年维也纳新年音乐会视频文件信息:

2018 维也纳年音乐会-中场高清视频@享乐音乐_xlebbs.com.mp4.jpg
General
Complete name                  : F:\BaiduYunDownload\2018 维也纳年音乐会-中场高清视频@享乐音乐_xlebbs.com.mp4
Format                         : MPEG-4
Format profile                 : Base Media / Version 2
Codec ID                       : mp42 (mp42/isom)
File size                      : 584 MiB
Duration                       : 24mn 23s
Overall bit rate               : 3 345 Kbps
Encoded date                   : UTC 2018-01-01 12:23:44
Tagged date                    : UTC 2018-01-01 12:23:44

Video
ID                             : 1
Format                         : AVC
Format/Info                    : Advanced Video Codec
Format profile                 : 维也纳年音乐会-中场高清视频@享乐音乐_xlebbs.com
Format settings, CABAC         : Yes
Format settings, ReFrames      : 3 frames
Format settings, GOP           : M=4, N=75
Codec ID                       : avc1
Codec ID/Info                  : Advanced Video Coding
Duration                       : 24mn 23s
Bit rate mode                  : Constant
Bit rate                       : 3 000 Kbps
Maximum bit rate               : 6 948 Kbps
Width                          : 1 280 pixels
Height                         : 720 pixels
Display aspect ratio           : 16:9
Frame rate mode                : Constant
Frame rate                     : 25.000 fps
Standard                       : PAL
Color space                    : YUV
Chroma subsampling             : 4:2:0
Bit depth                      : 8 bits
Scan type                      : Progressive
Bits/(Pixel*Frame)             : 0.130
Stream size                    : 523 MiB (90%)
Title                          : Telestream, LLC Telestream Media Framework - Release TXGP 2016.80.216804
Encoded date                   : UTC 2018-01-01 12:23:44
Tagged date                    : UTC 2017-12-31 11:38:03
Color range                    : Limited

Audio
ID                             : 2
Format                         : AAC
Format/Info                    : Advanced Audio Codec
Format profile                 : LC
Codec ID                       : 40
Duration                       : 24mn 23s
Source duration                : 24mn 23s
Bit rate mode                  : Constant
Bit rate                       : 192 Kbps
Channel(s)                     : 2 channels
Channel positions              : Front: L R
Sampling rate                  : 48.0 KHz
Frame rate                     : 46.875 fps (1024 spf)
Compression mode               : Lossy
Stream size                    : 33.5 MiB (6%)
Source stream size             : 33.5 MiB (6%)
Title                          : Telestream, LLC Telestream Media Framework - Release TXGP 2016.80.216804
Encoded date                   : UTC 2018-01-01 12:23:44
Tagged date                    : UTC 2017-12-31 11:38:03

Other #1
ID                             : 65536
Type                           : Hint
Format                         : RTP
Codec ID                       : rtp
Duration                       : 24mn 23s
Encoded date                   : UTC 2017-12-31 11:37:26
Tagged date                    : UTC 2017-12-31 11:38:03

Other #2
ID                             : 65537
Type                           : Hint
Format                         : RTP
Codec ID                       : rtp
Duration                       : 24mn 23s
Encoded date                   : UTC 2017-12-31 11:37:46
Tagged date                    : UTC 2017-12-31 11:38:03
Source duration                : 1463552
Source frame count             : 34302
Source stream size             : 2195312
Stream size                    : 2195264
Bit rate mode                  : VBR


Neujahrskonzert  2018年维也纳新年音乐会
NEW YEAR'S CONCERT 2018 维也纳新年音乐会2018年高清蓝光视频打包下载回复可见:
游客,如果您要查看本帖隐藏内容请回复



发表于 2018-1-2 22:05:10
收下了,好高清视频,一定要支持.
发表于 2018-1-3 09:18:54
真是及时雨,多谢楼主分享
发表于 2018-1-5 13:14:28 来自手机
最近发现自己好浮躁,需要听音乐冷静一下。
发表于 2018-1-5 15:07:22
很好。还要大于18个字符,我也是服了。
发表于 2018-1-5 23:04:55
好高清视频必须要下的哦, 谢谢分享
发表于 2018-1-7 11:34:38
我的音乐人生在这里重新出发,重新启程。我要放下所有包袱所有束缚。
发表于 2018-1-8 22:33:41
需要慢慢品味才知道旋律有多么美妙
发表于 2018-1-11 05:09:47
好听的音乐对于我,无关艺术,只是自我。
发表于 2018-1-11 06:04:35
好听的歌曲深获我心,动人的无损音乐深获我心啊。
您需要登录后才可以回帖 登录 | 立即注册  

本版积分规则

1234下一页

逛了这么久,何不进去瞧瞧!

登录 发布 快速回复 返回顶部 返回列表