设为首页 收藏本站 开启辅助访问
 找回密码
 立即注册

QQ登录

只需一步,快速开始

扫一扫,访问微社区

或者

[韩国美女] 车模柳智惠 류지혜 胸器逼人超短紧身牛仔裤 性感热舞 [HD720P.MP4.30M]

11 6575
逍遥音 发表于 2015-12-28 20:13:25 |阅读模式 |复制链接

马上注册,海量高品质无损音乐打包下载。

您需要 登录 才可以下载或查看,没有帐号?立即注册

x
本帖最后由 上善若水 于 2016-7-17 22:45 编辑

车模柳智惠   胸器逼人超短紧身牛仔裤 性感热舞.mp4.jpg

General
Complete name :车模柳智惠 류지혜  胸器逼人超短紧身牛仔裤 性感热舞.mp4
Format                         : MPEG-4
Format profile                 : Base Media
Codec ID                       : isom
File size                      : 29.9 MiB
Duration                       : 2mn 3s
Overall bit rate mode          : Variable
Overall bit rate               : 2 036 Kbps
Encoded date                   : UTC 2015-11-26 12:20:30
Tagged date                    : UTC 2015-11-26 12:20:30

Video
ID                             : 1
Format                         : AVC
Format/Info                    : Advanced Video Codec
Format settings, CABAC         : Yes
Format settings, ReFrames      : 2 frames
Format settings, GOP           : M=3, N=15
Codec ID                       : avc1
Codec ID/Info                  : Advanced Video Coding
Duration                       : 2mn 3s
Bit rate mode                  : Variable
Bit rate                       : 1 839 Kbps
Maximum bit rate               : 2 000 Kbps
Width                          : 960 pixels
Height                         : 720 pixels
Display aspect ratio           : 4:3
Frame rate mode                : Constant
Frame rate                     : 29.970 fps
Standard                       : NTSC
Color space                    : YUV
Chroma subsampling             : 4:2:0
Bit depth                      : 8 bits
Scan type                      : Progressive
Bits/(Pixel*Frame)             : 0.089
Stream size                    : 27.1 MiB (90%)
Language                       : English
Encoded date                   : UTC 2015-11-26 12:20:30
Tagged date                    : UTC 2015-11-26 12:20:30
Color range                    : Limited
Color primaries                : BT.709
Transfer characteristics       : BT.709
Matrix coefficients            : BT.709

Audio
ID                             : 2
Format                         : AAC
Format/Info                    : Advanced Audio Codec
Format profile                 : LC
Codec ID                       : 40
Duration                       : 2mn 3s
Bit rate mode                  : Constant
Bit rate                       : 192 Kbps
Channel(s)                     : 2 channels
Channel positions              : Front: L R
Sampling rate                  : 44.1 KHz
Compression mode               : Lossy
Stream size                    : 2.83 MiB (9%)
Language                       : English
Encoded date                   : UTC 2015-11-26 12:20:30
Tagged date                    : UTC 2015-11-26 12:20:30




韩国美女车模柳智惠 性感热舞HD高清视频下载:

游客,如果您要查看本帖隐藏内容请回复






上一篇:taylor swift 霉霉 shake it off 高清完整中文字幕版[HD1080P.MP4.110M]
下一篇:《我是歌手》第四季 第一期至第六期 高清现场[HD720P.mp4]
回复

使用道具 举报

发表于 2015-12-28 20:17:38 来自手机
下载看看一下哦。感谢楼主提供
发表于 2015-12-29 00:35:26
强烈支持,楼主你分享的高清视频太棒了啊!!!
发表于 2015-12-29 04:35:22
很好很强大!高清视频收下了!感谢。
发表于 2015-12-29 06:11:48
经典的视频,HD品质,谢谢提供分享!
发表于 2015-12-29 11:57:14 来自手机
高清视频是个好东东,收藏了。
发表于 2015-12-29 12:37:23
很好的高清视频,下载收藏了,谢谢楼主。
发表于 2015-12-29 19:38:37 来自手机
高清的很难得啊,由衷的谢谢你
发表于 2015-12-29 20:28:35 来自手机
把这个高清视频下来看看,谢谢楼主贡献了。
发表于 2015-12-30 08:21:40 来自手机
楼主好人 谢谢分享好高清视频。~~
12下一页
快速回复 返回列表
  
官方微博
本站联系方式:QQ:528087667 邮箱:xlebbs@163.com

逛了这么久,何不进去瞧瞧!

登录 发布 快速回复 返回顶部 返回列表