设为首页 收藏本站 开启辅助访问
 找回密码
 立即注册

QQ登录

只需一步,快速开始

扫一扫,访问微社区

点击进入授权页面

只需一步,快速开始

或者

[美女视频] 周杰伦-《红尘客栈》 漂亮小美女钢琴弹唱版 [HD720P.MP4.35M]

17 6856
逍遥音 发表于 2015-12-23 03:42:16 |阅读模式 |复制链接

马上注册,海量高品质无损音乐打包下载。

您需要 登录 才可以下载或查看,没有帐号?立即注册  

x
QQ截图20151223032144.jpg

周杰伦-《红尘客栈》 漂亮小美女钢琴弹唱版.mkv.jpg


General
Complete name:周杰伦-《红尘客栈》 漂亮小美女钢琴弹唱版.mp4
Format                         : MPEG-4
Format profile                 : Base Media
Codec ID                       : isom
File size                      : 34.4 MiB
Duration                       : 2mn 24s
Overall bit rate mode          : Variable
Overall bit rate               : 1 997 Kbps
Encoded date                   : UTC 2015-12-22 18:09:50
Tagged date                    : UTC 2015-12-22 18:09:50

Video
ID                             : 1
Format                         : AVC
Format/Info                    : Advanced Video Codec
Format settings, CABAC         : Yes
Format settings, ReFrames      : 2 frames
Format settings, GOP           : M=3, N=15
Codec ID                       : avc1
Codec ID/Info                  : Advanced Video Coding
Duration                       : 2mn 24s
Bit rate mode                  : Variable
Bit rate                       : 1 802 Kbps
Maximum bit rate               : 2 000 Kbps
Width                          : 720 pixels
Height                         : 480 pixels
Display aspect ratio           : 3:2
Frame rate mode                : Constant
Frame rate                     : 30.000 fps
Standard                       : NTSC
Color space                    : YUV
Chroma subsampling             : 4:2:0
Bit depth                      : 8 bits
Scan type                      : Progressive
Bits/(Pixel*Frame)             : 0.174
Stream size                    : 31.1 MiB (90%)
Language                       : English
Encoded date                   : UTC 2015-12-22 18:09:50
Tagged date                    : UTC 2015-12-22 18:09:50
Color range                    : Limited
Color primaries                : BT.709
Transfer characteristics       : BT.709
Matrix coefficients            : BT.709

Audio
ID                             : 2
Format                         : AAC
Format/Info                    : Advanced Audio Codec
Format profile                 : LC
Codec ID                       : 40
Duration                       : 2mn 24s
Bit rate mode                  : Constant
Bit rate                       : 192 Kbps
Channel(s)                     : 2 channels
Channel positions              : Front: L R
Sampling rate                  : 44.1 KHz
Compression mode               : Lossy
Stream size                    : 3.32 MiB (10%)
Language                       : English
Encoded date                   : UTC 2015-12-22 18:09:50
Tagged date                    : UTC 2015-12-22 18:09:50


《红尘客栈》 漂亮小美女钢琴弹唱版视频下载
游客,如果您要查看本帖隐藏内容请回复


WAV格式的音乐《红尘客栈》 漂亮小美女钢琴弹唱版音频下载
游客,如果您要查看本帖隐藏内容请回复






上一篇:甜美女声音域悠扬 《南山南》吉他版超好听 [HD720P.MP4.48M]
下一篇:Taylor Swift 泰勒·斯威夫特演唱会 —2015世界之旅霉霉悉尼演唱会[HD1080P.MP4.5.3G]
回复

使用道具 举报

发表于 2015-12-27 01:54:51 来自手机
谢谢,高清视频收下了,今天收获不少啊
发表于 2015-12-27 02:01:17 来自手机
一切都好,我来看看。谢谢!
发表于 2015-12-27 03:06:11
高清视频太好看了,这个不支持不行啊~
发表于 2015-12-27 04:09:38 来自手机
收下了,好高清视频,一定要支持.
发表于 2015-12-27 04:27:03
好视频就要收藏,谢谢楼主分享!
发表于 2015-12-27 04:49:45
看着让人沉醉!由衷的感谢分享。
发表于 2015-12-27 05:01:43
谢谢,高清视频收下了,今天收获不少啊
发表于 2015-12-27 05:22:55
好看吗?我想下载回来好好欣赏
发表于 2015-12-27 05:46:11 来自手机
需要慢慢品味才知道旋律有多么美妙
*滑动验证:
您需要登录后才可以回帖 登录 | 立即注册  

本版积分规则

12下一页
快速回复 返回列表
  
官方微博
本站联系方式:QQ:528087667 邮箱:xlebbs@163.com

逛了这么久,何不进去瞧瞧!

登录 发布 快速回复 返回顶部 返回列表